注册 登录  
 加关注
查看详情
   显示下一条  |  关闭
温馨提示!由于新浪微博认证机制调整,您的新浪微博帐号绑定已过期,请重新绑定!立即重新绑定新浪微博》  |  关闭

英雄本色的博客

没有黑夜的等待,就没有白天的黎明,但白天之后还有黑夜!

 
 
 

日志

 
 

《CCTV空中剧院》1月20日现场直播《2017小年封箱戏》  

2017-01-11 23:17:18|  分类: 【中国戏剧】 |  标签: |举报 |字号 订阅

  下载LOFTER 我的照片书  |
《2017小年封箱戏》节目单
主持人:张 喆 任鲁豫 张腾岳
    何赛飞 许 娣 刘亚津 李伟建 吴碧霞 刘 宸

一、《守岁大观园》
贾 母:袁慧琴  王熙凤:何赛飞
薛 蟠:张 兰  贾宝玉:王 怡
林黛玉:沈铁梅  刘姥姥:李伟建
赵 大:方 旭

二、豫剧《朝阳沟》
表演者:张 静 许 娣 吴碧霞
三、京剧《凤还巢》
表演者:金喜全 蓝 天
四、评剧《黛诺》
表演者:姜亦珊
五、京剧《勘玉钏》
表演者:鲁 肃
六、新编《法门寺》
刘 瑾:韩胜存  贾 桂:包 飞
赵 廉:张馨月  宋巧姣:王 越
刘公道:王梦婷  刘媒婆:曹阳阳
孙玉姣:杨少彭  傅 朋:唐禾香
太 后:窦 骞

七、越剧《梁山伯与祝英台》
表演者:丁晓君 窦晓璇
八、河北梆子《金水桥》
表演者:张建国
九、豫剧《抬花轿》
表演者:侯 宇
十、京剧《大登殿》
王宝钏:王奕謌  薛平贵:王 艳
代战公主:郭瑶瑶 冯冠博
王夫人:傅希如
马达、江海:刘 宸 刘亚津
《CCTV空中剧院》1月20日现场直播《2017小年封箱戏》 - 等待 - 英雄本色的博客
 

Format : MPEG-TS
File size : 15.0 GiB
Duration : 2 h 23 min
Overall bit rate mode : Variable
Overall bit rate : 15.0 Mb/s

Video
ID : 101 (0x65)
Menu ID : 1 (0x1)
Format : AVC
Format/Info : Advanced Video Codec
Format profile : High@L4.1
Format settings, CABAC : Yes
Format settings, ReFrames : 4 frames
Codec ID : 27
Duration : 2 h 23 min
Bit rate : 13.7 Mb/s
Width : 1 920 pixels
Height : 1 080 pixels
Display aspect ratio : 16:9
Frame rate : 25.000 FPS
Color space : YUV
Chroma subsampling : 4:2:0
Bit depth : 8 bits
Scan type : Interlaced
Scan type, store method : Separated fields
Scan order : Top Field First
Bits/(Pixel*Frame) : 0.264
Stream size : 13.8 GiB (92%)
Color range : Limited
Color primaries : BT.709
Transfer characteristics : BT.709
Matrix coefficients : BT.709

Audio #1
ID : 256 (0x100)
Menu ID : 1 (0x1)
Format : MPEG Audio
Format version : Version 1
Format profile : Layer 2
Mode : Dual mono
Codec ID : 3
Duration : 2 h 23 min
Bit rate mode : Constant
Bit rate : 256 kb/s
Channel(s) : 2 channels
Sampling rate : 48.0 kHz
Compression mode : Lossy
Stream size : 263 MiB (2%)
Language : English

Audio #2
ID : 257 (0x101)
Menu ID : 1 (0x1)
Format : MPEG Audio
Format version : Version 1
Format profile : Layer 2
Mode : Dual mono
Codec ID : 3
Duration : 2 h 23 min
Bit rate mode : Constant
Bit rate : 256 kb/s
Channel(s) : 2 channels
Sampling rate : 48.0 kHz
Compression mode : Lossy
Stream size : 263 MiB (2%)
Language : English






  评论这张
 
阅读(4)| 评论(0)
推荐 转载

历史上的今天

在LOFTER的更多文章

评论

<#--最新日志,群博日志--> <#--推荐日志--> <#--引用记录--> <#--博主推荐--> <#--随机阅读--> <#--首页推荐--> <#--历史上的今天--> <#--被推荐日志--> <#--上一篇,下一篇--> <#-- 热度 --> <#-- 网易新闻广告 --> <#--右边模块结构--> <#--评论模块结构--> <#--引用模块结构--> <#--博主发起的投票-->
 
 
 
 
 
 
 
 
 
 
 
 
 
 

页脚

网易公司版权所有 ©1997-2018