注册 登录  
 加关注
   显示下一条  |  关闭
温馨提示!由于新浪微博认证机制调整,您的新浪微博帐号绑定已过期,请重新绑定!立即重新绑定新浪微博》  |  关闭

英雄本色的博客

没有黑夜的等待,就没有白天的黎明,但白天之后还有黑夜!

 
 
 

日志

 
 

北京卫视2017元宵联欢晚会  

2017-02-13 12:48:40|  分类: 【综艺晚会】 |  标签: |举报 |字号 订阅

  下载LOFTER 我的照片书  |
北京卫视2017元宵联欢晚会[TS/8.5GB]
======================================================================================
北京卫视2017元宵联欢晚会 - 等待 - 英雄本色的博客
 北京卫视2017元宵特别节目单:
北京卫视2017元宵联欢晚会 - 等待 - 英雄本色的博客
 
1.小品《过年啦》
      编剧:王宏坤、程目
     导演:乔杰
     表演:孙涛、邵峰、李明启
2.音乐小品《今晚的荣誉》
    编剧:王泓泽 王元虎 何子君
    导演:王泓泽
    表演:何子君 王元虎 王泓泽
    舞蹈编导:何子君
3.歌曲《多远也要在一起》
   作词:G.E.M.邓紫棋
   作曲:G.E.M.邓紫棋
   编曲:Lupo Groinig
   演唱:G.E.M.邓紫棋
4.小品《你还记得吗》
   编剧:邹僧
   导演:白凯南
   表演:白凯南、徐岑子、叶飞
5.相声《Hello 我的中国年》
   作者:闫佳宝 韩雪松
   导演:赵伟
   表演:闫佳宝 Tina吉米耶果 妮卡
6.相声《规矩论》
   作者:方清平、满玉、吕莉娜
   表演:李金斗、方清平、付强
7.相声《速度与激情》
   作者:回想
   表演:李伟建、刘伟
 
北京卫视2017元宵联欢晚会 - 等待 - 英雄本色的博客

 

Format                      : MPEG-TS
File size : 8.54 GiB
Duration : 1 h 15 min
Overall bit rate mode : Variable
Overall bit rate : 16.3 Mb/s

Video
ID : 6928 (0x1B10)
Menu ID : 2701 (0xA8D)
Format : MPEG Video
Format version : Version 2
Format profile : Main@High
Format settings, BVOP : Yes
Format settings, Matrix : Custom
Format settings, GOP : Variable
Format settings, picture st : Frame
Codec ID : 2
Duration : 1 h 15 min
Bit rate mode : Constant
Bit rate : 14.9 Mb/s
Maximum bit rate : 16.0 Mb/s
Width : 1 920 pixels
Height : 1 080 pixels
Display aspect ratio : 16:9
Frame rate : 25.000 FPS
Color space : YUV
Chroma subsampling : 4:2:0
Bit depth : 8 bits
Scan type : Interlaced
Scan order : Top Field First
Compression mode : Lossy
Bits/(Pixel*Frame) : 0.287
Time code of first frame : 00:00:00:00
Time code source : Group of pictures header
GOP, Open/Closed : Open
Stream size : 7.81 GiB (91%)

Audio #1
ID : 6931 (0x1B13)
Menu ID : 2701 (0xA8D)
Format : AC-3
Format/Info : Audio Coding 3
Mode extension : CM (complete main)
Format settings, Endianness : Big
Codec ID : 6
Duration : 1 h 15 min
Bit rate mode : Constant
Bit rate : 448 kb/s
Channel(s) : 2 channels
Channel positions : Front: L R
Sampling rate : 48.0 kHz
Frame rate : 31.250 FPS (1536 spf)
Bit depth : 16 bits
Compression mode : Lossy
Delay relative to video : 10 ms
Stream size : 241 MiB (3%)
Language : English

Audio #2
ID : 6932 (0x1B14)
Menu ID : 2701 (0xA8D)
Format : MPEG Audio
Format version : Version 1
Format profile : Layer 2
Mode : Joint stereo
Codec ID : 3
Duration : 1 h 15 min
Bit rate mode : Constant
Bit rate : 128 kb/s
Channel(s) : 2 channels
Sampling rate : 48.0 kHz
Compression mode : Lossy
Delay relative to video : 9 ms
Stream size : 68.9 MiB (1%)
Language : English


  评论这张
 
阅读(0)| 评论(0)
推荐 转载

历史上的今天

在LOFTER的更多文章

评论

<#--最新日志,群博日志--> <#--推荐日志--> <#--引用记录--> <#--博主推荐--> <#--随机阅读--> <#--首页推荐--> <#--历史上的今天--> <#--被推荐日志--> <#--上一篇,下一篇--> <#-- 热度 --> <#-- 网易新闻广告 --> <#--右边模块结构--> <#--评论模块结构--> <#--引用模块结构--> <#--博主发起的投票-->
 
 
 
 
 
 
 
 
 
 
 
 
 
 

页脚

网易公司版权所有 ©1997-2018